1. Deepak Chopra on Healing Through Meditation

    *This episode is pretaped , Maria will still be out this week* The one and only Deepak Chopra sat in with the Heal Squad to discuss the vast power of mediation , how it can heal you and even reverse aging . He also discussed moral outrage being an actual form of rage , sacred activism in creating social change , applying the mantra Love in Action to all tasks and the best way to breathe to generate he . . .


    • 2021-03-22 13:00
  2. (Access+Holywood+2010-05-19+Maria+Menounos.avi)

    Source : download1581 . mediafire . com/v8hhth7e9vqg/exdjrzxjymd Metadata: encoder : Lavf52 . 47 . 0 Duration: 00:04:56 . 44 , start: 0 . 000000 , bitrate: N/A Stream #0:0: Video: msmpeg4v2 (MP42 / 0x3234504D) , yuv420p , 720x540 , SAR 1:1 DAR 4:3 , 25 fps , 25 tbr , 25 tbn , 25 tbc Stream #0:1: Audio: mp3 (U[0][0][0] / 0x0055) , 44100 Hz , stereo , s16p , 256 kb/s

  3. (Access+Hollywood+2010-04-12+Maria+Menounos.avi)

    Source : download1510 . mediafire . com/ym2ww9rfwolg/oyozzoa1al5 Metadata: encoder : Lavf52 . 23 . 1 Duration: 00:02:11 . 74 , start: 0 . 000000 , bitrate: N/A Stream #0:0: Video: msmpeg4v2 (MP42 / 0x3234504D) , yuv420p , 720x540 , SAR 1:1 DAR 4:3 , 25 fps , 25 tbr , 25 tbn , 25 tbc Stream #0:1: Audio: mp3 (U[0][0][0] / 0x0055) , 44100 Hz , stereo , s16p , 256 kb/s

  4. Maria Menounos Fleeing California ?!

    Maria Menounos has had a trying last few years between her mother's brain cancer battle and her own brain tumor . Now she's turning the corner to another chapter of her life and this one is all about family . She has said she has plans to move to Nashville because she and her husband are expecting


    • 2021-01-06 22:07
  5. Lauren on starting her own podcast, Unleash Your Inner Creative, dropping an EP, & Life in LA : Weekly Woman

    Lauren LoGrasso is a podcast host and producer , Singer/Songwriter , Public Speaker , Media/podcasting consultant and SAG-AFTRA Actress . Lauren received her BFA in Acting and BA in Communication from Michigan State University . She traveled to Los Angeles to complete her last three credits with an internship on The Ellen Show and decided to stay to pursue acting . Within weeks of her pursuit , she got h . . .


    • 2020-12-26 00:00
  6. Reversing Type 2 Diabetes: Everything Mainstream Science Gets Wrong | Maria Menounos

    Ep . 132 Did you know that the CDC has officially declared #diabetes a pandemic in the USA? NYT Bestselling authors Robby Barbaro and Cyrus Khambatta are Type 1 themselves , and after years of frustration on the diabetes roller coaster , they took matters into their own hands . To their shock , most of what they'd been told by doctors and " experts " was abjectly wrong . The high fat , low carb diet you' . . .


    • 2020-09-01 19:27